<?xml version="1.0" standalone="no"?> <!DOCTYPE svg PUBLIC "-//W3C//DTD SVG 1.0//EN" "http://www.w3.org/TR/2001/REC-SVG-20010904/DTD/svg10.dtd" > <svg xmlns="http://www.w3.org/2000/svg" width="100%" height="100%">
<defs >
<font id="myriadprosemibold" horiz-adv-x="1032" ><font-face
    font-family="Myriad Pro Light"
    units-per-em="2048"
    panose-1="2 11 6 3 3 4 3 2 2 4"
    ascent="1536"
    descent="-512"
    alphabetic="0" />
<missing-glyph horiz-adv-x="1024" d="M0 0V1434H1024V0H0ZM512 809L860 1331H164L512 809ZM573 717L922 195V1239L573 717ZM164 102H860L512 625L164 102ZM102 1239V195L451 717L102 1239Z" />
<glyph unicode=" " glyph-name="space" horiz-adv-x="423" />
<glyph unicode="!" glyph-name="exclam" horiz-adv-x="514" d="M352 426H160L123 1380H389L352 426ZM256 -23Q187 -23 144 22T102 137Q102 207 145 252T256 297Q326 297 368 253T412 137Q412 67 369 22T256 -23Z" />
<glyph unicode="&quot;" glyph-name="quotedbl" horiz-adv-x="757" d="M86 1403H317L276 877H127L86 1403ZM440 1403H672L631 877H481L440 1403Z" />
<glyph unicode="#" glyph-name="numbersign" horiz-adv-x="1077" d="M424 541H623L657 801H459L424 541ZM346 0H190L244 381H76V541H268L305 801H129V958H328L381 1331H535L483 958H682L735 1331H889L838 958H1004V801H813L778 541H950V383H752L700 0H543L596
383H399L346 0Z" />
<glyph unicode="$" glyph-name="dollar" horiz-adv-x="1097" d="M623 -176H455V23Q359 26 269 50T123 113L178 305Q331 215 498 215Q595 215 655 259T715 377Q715 445 662 493T492 584Q406 615 345 648T235 724T162 824T137 950Q137 1083 225 1177T467 1298V1499H635V1309Q792
1304 918 1241L862 1053Q860 1054 845 1061T823 1071T800 1080T772 1091T742 1100T707 1109T670 1115T628 1120T584 1122Q484 1122 437 1081T389 979Q389 918 444 876T637 778Q811 713 890 624T969 399Q969 264 878 163T623 35V-176Z" />
<glyph unicode="%" glyph-name="percent" horiz-adv-x="1720" d="M408 1354Q564 1354 653 1247T743 958Q743 758 643 648T397 537Q252 537 155 643T57 936Q57 1124 155 1239T408 1354ZM403 1212Q329 1212 290 1137T250 944Q248 826 289 752T403 678Q477 678 515
749T553 946Q553 1066 517 1139T403 1212ZM545 -23H401L1174 1354H1317L545 -23ZM1325 803Q1482 803 1571 695T1661 406Q1661 206 1561 95T1315 -16Q1170 -16 1074 91T977 385Q977 571 1074 687T1325 803ZM1321 659Q1247 659 1207 584T1167 391Q1165 274 1206 200T1321
125Q1395 125 1432 196T1470 393Q1470 514 1434 586T1321 659Z" />
<glyph unicode="&amp;" glyph-name="ampersand" horiz-adv-x="1320" d="M1313 0H1018Q970 47 909 115Q746 -23 520 -23Q410 -23 321 9T177 97T92 222T63 367Q63 624 330 766V772Q219 903 219 1049Q219 1115 244 1177T316 1290T438 1372T606 1403Q755 1403 851
1318T948 1094Q948 984 881 896T664 733L662 725L940 410Q1025 542 1065 776H1290Q1231 436 1075 258L1313 0ZM557 164Q699 164 788 256L444 639Q303 541 303 408Q303 303 373 234T557 164ZM594 1241Q525 1241 486 1192T446 1073Q446 966 547 852Q642 912 686 964T731
1085Q731 1147 696 1194T594 1241Z" />
<glyph unicode="&apos;" glyph-name="quotesingle" horiz-adv-x="405" d="M86 1403H317L276 877H127L86 1403Z" />
<glyph unicode="(" glyph-name="parenleft" horiz-adv-x="616" d="M375 1419H559Q328 1077 328 586Q328 111 559 -242H375Q127 106 127 586Q129 1071 375 1419Z" />
<glyph unicode=")" glyph-name="parenright" horiz-adv-x="616" d="M240 -242H57Q287 106 287 590Q287 1070 57 1419H240Q489 1073 489 588Q487 105 240 -242Z" />
<glyph unicode="*" glyph-name="asterisk" horiz-adv-x="894" d="M567 1403L723 1315L514 1057V1053L834 1106V930L512 979V973L723 723L565 633L444 936L440 934L315 631L168 723L375 975V981L61 930V1106L371 1053L373 1059L168 1313L324 1403L442 1102H449L567 1403Z" />
<glyph unicode="+" glyph-name="plus" horiz-adv-x="1220" d="M526 1090H694V627H1139V467H694V0H526V467H82V627H526V1090Z" />
<glyph unicode="," glyph-name="comma" horiz-adv-x="483" d="M188 -231L16 -248Q109 12 154 293L418 313Q374 167 311 17T188 -231Z" />
<glyph unicode="-" glyph-name="hyphen" horiz-adv-x="645" d="M61 633H584V459H61V633Z" />
<glyph unicode="." glyph-name="period" horiz-adv-x="483" d="M260 -23Q192 -23 148 23T104 139T148 255T260 301Q329 301 372 256T416 139Q416 69 373 23T260 -23Z" />
<glyph unicode="/" glyph-name="slash" horiz-adv-x="690" d="M193 -82H16L516 1403H692L193 -82Z" />
<glyph unicode="0" glyph-name="zero" horiz-adv-x="1097" d="M557 1354Q675 1354 766 1304T913 1161T999 947T1028 674Q1028 348 903 163T543 -23Q318 -23 195 163T70 662Q70 869 126 1024T293 1267T557 1354ZM551 1161Q446 1161 385 1033T324 662Q323 424 383
297T551 170Q661 170 718 299T776 670Q776 906 720 1033T551 1161Z" />
<glyph unicode="1" glyph-name="one" horiz-adv-x="1097" d="M483 0V1104H479L236 981L193 1171L516 1331H727V0H483Z" />
<glyph unicode="2" glyph-name="two" horiz-adv-x="1097" d="M991 0H88V154L246 299Q375 419 452 497T592 654T681 797T709 926Q709 1023 651 1086T471 1149Q331 1149 186 1038L113 1217Q190 1279 296 1316T522 1354Q629 1354 714 1322T853 1233T933 1105T961
950Q961 882 941 815T888 688T801 563T693 440T561 313L444 213V209H991V0Z" />
<glyph unicode="3" glyph-name="three" horiz-adv-x="1097" d="M82 70L139 260Q187 231 272 205T442 178Q577 178 645 241T711 391Q711 502 624 559T410 616H293V801H406Q452 801 496 811T581 843T645 902T670 987Q670 1059 616 1106T457 1153Q382 1153 308 1128T184
1069L127 1251Q188 1294 292 1324T510 1354Q707 1354 816 1260T926 1028Q926 922 864 841T680 717V713Q806 690 889 601T973 381Q973 206 834 92T455 -23Q341 -23 241 4T82 70Z" />
<glyph unicode="4" glyph-name="four" horiz-adv-x="1097" d="M881 0H643V338H41V502L584 1331H881V528H1053V338H881V0ZM281 528H643V891Q643 1018 651 1122H643Q586 1006 526 897L283 532L281 528Z" />
<glyph unicode="5" glyph-name="five" horiz-adv-x="1097" d="M934 1331V1122H422L383 856Q430 862 479 862Q674 862 803 776Q883 726 930 640T977 438Q977 311 912 207T722 40T438 -23Q331 -23 238 -1T86 55L137 246Q188 219 267 198T430 176Q549 176 634 241T719
420Q719 538 626 605T340 672Q235 672 158 659L246 1331H934Z" />
<glyph unicode="6" glyph-name="six" horiz-adv-x="1097" d="M897 1350L899 1153Q821 1153 770 1147Q574 1124 462 1016T324 758H330Q440 887 629 887Q805 887 920 769T1036 453Q1036 326 979 218T813 43T567 -23Q410 -23 295 52T123 256T66 551Q66 738 127 892T297
1149Q480 1320 770 1346Q840 1354 897 1350ZM565 166Q662 166 721 242T780 438Q780 556 719 629T549 702Q480 702 421 664T332 565Q315 531 315 485Q318 346 383 256T565 166Z" />
<glyph unicode="7" glyph-name="seven" horiz-adv-x="1097" d="M109 1331H1004V1169L440 0H174L735 1118V1122H109V1331Z" />
<glyph unicode="8" glyph-name="eight" horiz-adv-x="1097" d="M543 -23Q430 -23 338 7T189 90T101 206T70 342Q70 579 319 688V694Q218 743 168 820T117 989Q117 1150 243 1252T561 1354Q664 1354 746 1325T878 1248T953 1140T979 1018Q979 927 929 848T774 717V711Q889
667 958 581T1028 375Q1028 197 893 87T543 -23ZM551 156Q650 156 711 212T772 354Q772 535 524 604Q431 576 380 515T328 371Q325 283 387 220T551 156ZM549 1180Q458 1180 407 1128T356 999T414 870T573 791Q645 811 692 865T739 991Q739 1068 691 1124T549 1180Z"
/>
<glyph unicode="9" glyph-name="nine" horiz-adv-x="1097" d="M190 -18V180Q238 175 330 184Q491 199 600 287Q732 393 770 582L766 584Q660 465 475 465Q300 465 186 580T72 879Q72 1006 132 1114T303 1288T553 1354Q703 1354 812 1279T974 1077T1028 786Q1028
389 797 168Q622 5 342 -14Q265 -22 190 -18ZM541 1167Q445 1167 384 1091T322 893Q324 786 381 718T541 649Q615 649 670 679T756 760Q770 788 770 831Q772 978 715 1072T541 1167Z" />
<glyph unicode=":" glyph-name="colon" horiz-adv-x="483" d="M260 668Q191 668 148 713T104 827Q104 898 148 943T260 989Q329 989 371 944T416 827Q416 757 373 713T260 668ZM260 -23Q192 -23 148 23T104 137Q104 207 148 253T260 299Q329 299 371 254T416 137Q416
68 373 23T260 -23Z" />
<glyph unicode=";" glyph-name="semicolon" horiz-adv-x="483" d="M188 -231L16 -248Q60 -131 97 17T154 293L418 313Q371 163 309 14T188 -231ZM272 668Q203 668 160 713T119 827Q119 898 162 943T272 989Q341 989 383 944T428 827Q428 757 385 713T272 668Z" />
<glyph unicode="&lt;" glyph-name="less" horiz-adv-x="1220" d="M125 471V618L1096 1090V905L326 547V543L1096 182V0L125 471Z" />
<glyph unicode="=" glyph-name="equal" horiz-adv-x="1220" d="M1139 676H82V838H1139V676ZM1139 262H82V422H1139V262Z" />
<glyph unicode="&gt;" glyph-name="greater" horiz-adv-x="1220" d="M1096 623V467L125 0V182L907 543V547L125 907V1090L1096 623Z" />
<glyph unicode="?" glyph-name="question" horiz-adv-x="876" d="M508 422H287L283 475Q266 642 406 811Q472 890 503 945T535 1055Q535 1121 493 1160T367 1200Q312 1200 256 1184T162 1139L100 1319Q159 1356 244 1379T422 1403Q602 1403 697 1314T793 1092Q793
1049 782 1007T757 935T714 864T668 803T614 741Q500 606 506 465L508 422ZM391 -23Q323 -23 280 23T236 137Q236 207 279 252T391 297Q460 297 502 253T547 137Q547 68 504 23T391 -23Z" />
<glyph unicode="@" glyph-name="at" horiz-adv-x="1546" d="M911 516L948 727Q908 739 866 739Q751 739 670 643T588 414Q588 349 617 311T702 272Q773 272 834 347T911 516ZM1063 -31L1098 -135Q938 -213 727 -213Q600 -213 486 -168T285 -42T147 161T96 430Q96
586 150 728T302 978T542 1148T854 1212Q1031 1212 1170 1136T1385 925T1462 621Q1462 399 1354 266T1085 133Q1013 133 968 175T920 301H913Q813 133 639 133Q541 133 477 204T412 395Q412 489 447 576T544 730T697 837T895 877Q1034 877 1128 829L1063 455Q1027
254 1118 254Q1197 251 1262 348T1327 610Q1327 828 1198 964T836 1100Q715 1100 606 1054T415 924T284 717T236 444Q236 193 382 48T760 -98Q941 -98 1063 -31Z" />
<glyph unicode="A" glyph-name="A" horiz-adv-x="1302" d="M860 391H422L303 0H43L485 1380H807L1255 0H985L860 391ZM463 582H817L709 922Q684 999 639 1180H635Q630 1162 607 1066T569 922L463 582Z" />
<glyph unicode="B" glyph-name="B" horiz-adv-x="1179" d="M145 4V1362Q290 1391 512 1391Q654 1391 746 1371T907 1303Q974 1263 1012 1196T1051 1044Q1051 947 991 867T821 745V741Q940 712 1020 623T1100 399Q1100 223 967 115Q818 -14 455 -14Q289 -14 145
4ZM395 1194V817H524Q652 817 724 871T797 1016Q797 1110 730 1157T539 1204Q440 1204 395 1194ZM395 633V182Q444 176 528 176Q662 176 748 232T834 408Q834 521 747 577T520 633H395Z" />
<glyph unicode="C" glyph-name="C" horiz-adv-x="1204" d="M1094 240L1135 41Q1086 16 991 -2T778 -20Q452 -20 263 168T74 674Q74 896 170 1063T433 1316T811 1403Q924 1403 1012 1384T1147 1341L1092 1141Q967 1194 821 1194Q604 1194 471 1061T338 686Q338
457 466 323T819 188Q983 188 1094 240Z" />
<glyph unicode="D" glyph-name="D" horiz-adv-x="1398" d="M145 4V1362Q324 1391 547 1391Q918 1391 1110 1231Q1325 1055 1325 723Q1325 544 1269 405T1110 174Q904 -14 485 -14Q293 -14 145 4ZM397 1180V193Q432 186 537 186Q785 184 922 320T1059 715Q1061
944 934 1069T569 1194Q458 1194 397 1180Z" />
<glyph unicode="E" glyph-name="E" horiz-adv-x="1054" d="M918 817V612H397V207H979V0H145V1380H948V1174H397V817H918Z" />
<glyph unicode="F" glyph-name="F" horiz-adv-x="1042" d="M145 0V1380H942V1174H397V793H905V586H397V0H145Z" />
<glyph unicode="G" glyph-name="G" horiz-adv-x="1363" d="M1251 762V63Q1039 -14 807 -14Q459 -14 266 170Q173 258 123 390T74 678Q74 893 170 1056T441 1307T842 1395Q960 1395 1057 1376T1208 1329L1153 1126Q1015 1186 840 1186Q613 1186 476 1056T338 690Q338
458 468 324T817 190Q948 190 1008 219V563H764V762H1251Z" />
<glyph unicode="H" glyph-name="H" horiz-adv-x="1376" d="M145 1380H397V827H981V1380H1233V0H981V608H397V0H145V1380Z" />
<glyph unicode="I" glyph-name="I" horiz-adv-x="540" d="M145 1380H397V0H145V1380Z" />
<glyph unicode="J" glyph-name="J" horiz-adv-x="802" d="M420 494V1380H672V485Q672 345 640 245T545 88T401 4T213 -23Q89 -23 2 10L33 213Q118 188 188 188Q304 188 362 255T420 494Z" />
<glyph unicode="K" glyph-name="K" horiz-adv-x="1191" d="M145 0V1380H395V745H401Q430 792 502 895L862 1380H1174L698 793L1204 0H909L518 633L395 485V0H145Z" />
<glyph unicode="L" glyph-name="L" horiz-adv-x="1009" d="M145 0V1380H397V211H965V0H145Z" />
<glyph unicode="M" glyph-name="M" horiz-adv-x="1693" d="M1337 0L1311 563Q1292 980 1294 1143H1288Q1214 866 1124 614L924 16H729L545 606Q458 896 406 1143H401Q389 777 377 555L346 0H111L203 1380H535L715 825Q787 590 842 346H848Q912 605 985 827L1176
1380H1503L1583 0H1337Z" />
<glyph unicode="N" glyph-name="N" horiz-adv-x="1384" d="M377 0H145V1380H432L788 788Q922 568 1024 326H1028Q1006 579 1006 899V1380H1239V0H979L618 606Q457 884 371 1083L365 1081Q377 867 377 494V0Z" />
<glyph unicode="O" glyph-name="O" horiz-adv-x="1441" d="M729 1403Q926 1403 1073 1310T1295 1060T1370 705Q1370 535 1321 397T1183 167T973 26T709 -23Q518 -23 373 68T151 318T74 680Q74 890 156 1054T387 1311T729 1403ZM723 1200Q632 1200 559 1160T438
1049T365 885T340 684Q340 542 384 429T517 248T723 180Q842 180 929 249T1060 433T1104 694Q1104 828 1063 940T933 1126T723 1200Z" />
<glyph unicode="P" glyph-name="P" horiz-adv-x="1144" d="M145 0V1362Q310 1391 530 1391Q804 1391 938 1278Q1001 1226 1037 1147T1073 973Q1073 772 954 659Q807 512 518 512Q439 512 395 520V0H145ZM395 1186V719Q434 709 518 709Q661 709 741 775T821 963Q821
1076 747 1137T541 1198Q449 1198 395 1186Z" />
<glyph unicode="Q" glyph-name="Q" horiz-adv-x="1441" d="M1378 -23L1307 -221Q1026 -144 768 -43Q713 -25 678 -23Q556 -17 449 31T257 164T123 382T74 678Q74 889 156 1054T388 1311T733 1403Q880 1403 1001 1349T1202 1201T1326 980T1370 707Q1370 465 1272
299T1014 70V61Q1160 22 1378 -23ZM721 180Q840 180 928 249T1060 433T1104 694Q1104 830 1063 942T933 1127T725 1200Q603 1200 514 1128T382 941T340 684Q339 545 383 432T515 249T721 180Z" />
<glyph unicode="R" glyph-name="R" horiz-adv-x="1165" d="M145 0V1362Q317 1391 526 1391Q821 1391 952 1280Q1071 1181 1071 1004Q1071 878 999 787T821 657V651Q957 600 1014 385Q1020 360 1031 314T1049 242T1065 179T1081 119T1095 71T1109 28T1122 0H862Q828
69 770 326Q741 459 686 511T522 567H395V0H145ZM395 1188V752H545Q672 752 746 814T821 979Q821 1089 750 1144T551 1200Q445 1200 395 1188Z" />
<glyph unicode="S" glyph-name="S" horiz-adv-x="1062" d="M84 66L139 274Q293 186 473 186Q592 186 658 237T725 375Q725 452 669 504T479 604Q299 669 203 766T106 1006Q106 1178 240 1290T594 1403Q790 1403 926 1333L864 1130Q744 1196 590 1196Q478 1196
419 1147T360 1030Q360 954 419 907T625 803Q808 734 894 637T981 393Q981 308 949 235T853 104T688 13T457 -20Q351 -20 248 5T84 66Z" />
<glyph unicode="T" glyph-name="T" horiz-adv-x="1075" d="M410 0V1169H16V1380H1059V1169H662V0H410Z" />
<glyph unicode="U" glyph-name="U" horiz-adv-x="1363" d="M143 1380H395V575Q395 378 470 279T678 180Q818 180 893 278T969 575V1380H1221V592Q1221 283 1075 130T670 -23Q420 -23 282 126T143 590V1380Z" />
<glyph unicode="V" glyph-name="V" horiz-adv-x="1230" d="M750 0H461L14 1380H289L477 754Q564 470 612 250H616Q668 479 758 750L958 1380H1227L750 0Z" />
<glyph unicode="W" glyph-name="W" horiz-adv-x="1779" d="M641 0H369L31 1380H299L430 754Q486 485 520 272H524Q542 384 625 756L774 1380H1038L1176 745Q1232 474 1260 279H1264Q1293 459 1358 756L1501 1380H1757L1386 0H1116L973 649Q917 903 897 1087H893Q852
845 801 649L641 0Z" />
<glyph unicode="X" glyph-name="X" horiz-adv-x="1216" d="M1176 0H885L735 274Q651 427 598 535H592Q555 445 467 274L330 0H41L451 698L57 1380H346L496 1096Q538 1015 610 864H614Q665 984 723 1096L870 1380H1159L756 707L1176 0Z" />
<glyph unicode="Y" glyph-name="Y" horiz-adv-x="1177" d="M711 0H459V575L23 1380H309L475 1026Q551 860 594 752H598Q641 860 719 1026L885 1380H1169L711 582V0Z" />
<glyph unicode="Z" glyph-name="Z" horiz-adv-x="1159" d="M53 0V139L760 1165V1171H117V1380H1087V1233L391 217V209H1098V0H53Z" />
<glyph unicode="[" glyph-name="bracketleft" horiz-adv-x="616" d="M551 -229H152V1403H551V1257H338V-84H551V-229Z" />
<glyph unicode="\" glyph-name="backslash" horiz-adv-x="686" d="M670 -82H494L14 1403H190L670 -82Z" />
<glyph unicode="]" glyph-name="bracketright" horiz-adv-x="616" d="M66 1405H463V-229H66V-84H276V1260H66V1405Z" />
<glyph unicode="^" glyph-name="asciicircum" horiz-adv-x="1220" d="M1118 373H930L612 1133H606L289 373H102L530 1331H690L1118 373Z" />
<glyph unicode="_" glyph-name="underscore" horiz-adv-x="1024" d="M0 -154H1024V-256H0V-154Z" />
<glyph unicode="`" glyph-name="grave" horiz-adv-x="614" d="M25 1430H272L451 1126H274L25 1430Z" />
<glyph unicode="a" glyph-name="a" horiz-adv-x="1040" d="M924 0H696L680 111H674Q625 50 549 14T379 -23Q283 -23 210 20T102 130T66 274Q66 460 221 556T657 651V668Q657 691 653 711T636 757T602 800T543 830T455 842Q383 842 311 822T186 768L137 932Q199
970 293 995T498 1020Q591 1020 663 997T780 935T855 841T897 727T909 600V240Q909 83 924 0ZM664 350V487Q592 489 533 481T423 453T344 395T315 301Q315 231 355 195T459 158Q531 158 584 198T655 295Q664 318 664 350Z" />
<glyph unicode="b" glyph-name="b" horiz-adv-x="1198" d="M342 0H127Q135 136 135 281V1454H387V860H391Q439 935 520 977T711 1020Q895 1020 1011 880T1126 514Q1126 410 1101 321T1032 170T930 63T807 -2T674 -23Q459 -23 358 150H354L342 0ZM387 573V412Q387
380 393 352Q414 275 475 226T616 176Q734 176 802 264T870 504Q870 643 805 733T618 823Q541 823 479 773T395 639Q387 603 387 573Z" />
<glyph unicode="c" glyph-name="c" horiz-adv-x="919" d="M834 217L868 31Q760 -20 586 -20Q352 -20 212 117T72 487Q72 718 221 869T627 1020Q767 1020 870 973L825 784Q741 823 635 823Q494 823 411 732T330 500Q330 350 416 264T635 178Q736 178 834 217Z" />
<glyph unicode="d" glyph-name="d" horiz-adv-x="1189" d="M803 1454H1055V281Q1055 136 1063 0H838L827 158H823Q778 74 692 26T498 -23Q316 -23 194 119T72 487Q71 729 201 874T518 1020Q617 1020 690 984T799 889H803V1454ZM803 432V582Q803 617 797 647Q779
724 721 774T580 825Q462 825 395 733T328 496Q328 355 394 268T578 180Q655 180 715 229T795 358Q803 389 803 432Z" />
<glyph unicode="e" glyph-name="e" horiz-adv-x="1056" d="M981 428H313Q315 363 341 313T409 232T505 186T621 170Q779 170 897 215L934 41Q784 -20 586 -20Q345 -20 209 116T72 483Q72 588 104 684T195 855T349 975T559 1020Q653 1020 728 991T851 913T931 801T976
670T989 535Q989 474 981 428ZM313 604H752Q753 643 744 682T713 760T648 823T545 848Q489 848 445 825T375 764T333 686T313 604Z" />
<glyph unicode="f" glyph-name="f" horiz-adv-x="653" d="M416 0H164V809H29V997H164V1040Q164 1265 285 1380Q386 1477 545 1477Q634 1477 707 1452L688 1257Q643 1276 582 1276Q494 1276 454 1213T414 1049V997H633V809H416V0Z" />
<glyph unicode="g" glyph-name="g" horiz-adv-x="1173" d="M827 997H1047Q1038 876 1038 711V145Q1038 -174 891 -307Q753 -428 506 -428Q407 -428 314 -408T158 -348L213 -158Q341 -233 504 -233Q635 -233 713 -160T791 68V154H786Q742 86 667 46T496 6Q310 6
191 143T72 494Q72 613 109 713T208 880T352 983T524 1020Q630 1020 701 977T813 864H817L827 997ZM786 436V598Q786 638 778 666Q758 738 704 782T573 827Q465 827 397 739T328 502Q328 369 392 282T571 195Q642 195 698 236T776 346Q786 391 786 436Z" />
<glyph unicode="h" glyph-name="h" horiz-adv-x="1171" d="M135 0V1454H389V860H393Q441 933 518 975Q594 1020 690 1020Q757 1020 816 997T927 925T1008 790T1038 588V0H786V559Q786 676 740 744T594 813Q524 813 473 773T399 672Q389 646 389 596V0H135Z" />
<glyph unicode="i" glyph-name="i" horiz-adv-x="524" d="M389 0H135V997H389V0ZM262 1413Q325 1413 363 1375T403 1276Q403 1218 364 1180T260 1141Q198 1141 160 1179T121 1276Q121 1335 160 1374T262 1413Z" />
<glyph unicode="j" glyph-name="j" horiz-adv-x="552" d="M-61 -428L-86 -231Q43 -222 102 -160Q139 -121 153 -48T168 186V997H420V115Q420 -40 389 -142T291 -311Q228 -369 134 -398T-61 -428ZM232 1413T295 1413T396 1375T434 1276Q434 1218 395 1180T291 1141Q230
1141 192 1180T154 1276Q154 1336 193 1374Z" />
<glyph unicode="k" glyph-name="k" horiz-adv-x="1042" d="M387 1454V559H391Q441 638 471 676L713 997H1016L647 590L1069 0H760L473 440L387 340V0H135V1454H387Z" />
<glyph unicode="l" glyph-name="l" horiz-adv-x="526" d="M135 0V1454H389V0H135Z" />
<glyph unicode="m" glyph-name="m" horiz-adv-x="1736" d="M135 0V700Q135 882 127 997H344L354 850H360Q469 1020 668 1020Q765 1020 838 970T944 836H948Q999 917 1071 961Q1156 1020 1272 1020Q1337 1020 1394 997T1500 925T1577 790T1606 588V0H1360V551Q1360
678 1316 746T1182 815Q1120 815 1074 777T1006 682Q993 636 993 598V0H748V578Q748 686 704 750T575 815Q509 815 462 773T395 672Q381 637 381 590V0H135Z" />
<glyph unicode="n" glyph-name="n" horiz-adv-x="1171" d="M135 0V700Q135 882 127 997H348L360 848H367Q405 917 487 968T684 1020Q753 1020 813 997T925 925T1007 791T1038 592V0H786V563Q786 678 740 746T596 815Q525 815 473 772T399 668Q389 639 389 586V0H135Z" />
<glyph unicode="o" glyph-name="o" horiz-adv-x="1155" d="M588 1020Q810 1020 946 878T1083 508Q1083 376 1039 272T922 104T759 9T571 -23Q430 -23 317 38T138 217T72 492Q72 734 215 877T588 1020ZM582 836Q497 836 439 785T356 660T332 498Q332 350 399 255T580
160Q687 160 755 255T823 502Q823 563 809 620T768 726T692 806T582 836Z" />
<glyph unicode="p" glyph-name="p" horiz-adv-x="1198" d="M135 -406V666Q135 809 127 997H348L360 844H365Q480 1020 707 1020Q793 1020 869 984T1002 883T1092 722T1126 512Q1126 382 1088 278T984 109T839 11T672 -23Q580 -23 505 13T391 111H387V-406H135ZM387
571V418Q387 379 395 348Q414 271 475 222T616 172Q735 172 802 262T870 502Q870 640 805 730T623 821Q544 821 480 769T397 635Q387 600 387 571Z" />
<glyph unicode="q" glyph-name="q" horiz-adv-x="1189" d="M803 -406V137H799Q752 62 674 20T489 -23Q316 -23 194 117T72 483Q72 614 111 720T215 889T358 986T518 1020Q620 1020 694 980T809 866L813 864L819 997H1063Q1055 817 1055 709V-406H803ZM803 420V586Q803
620 797 647Q779 721 721 771T582 821Q463 821 396 731T328 496Q328 355 393 266T575 176Q652 176 710 221T791 342Q803 380 803 420Z" />
<glyph unicode="r" glyph-name="r" horiz-adv-x="729" d="M135 0V676Q135 877 127 997H346L354 807H362Q398 908 474 964T635 1020Q664 1020 694 1014V776Q654 784 621 784Q532 784 473 733T395 594Q387 548 387 516V0H135Z" />
<glyph unicode="s" glyph-name="s" horiz-adv-x="854" d="M74 49L123 231Q170 203 243 182T379 160Q459 160 499 189T539 270T504 352T375 416Q234 465 166 540T100 707Q100 842 203 931T477 1020Q629 1020 741 961L692 782Q592 840 481 840Q415 840 379 812T342
735Q342 689 380 660T516 596Q652 546 716 473T782 291Q782 152 676 66T377 -20Q197 -20 74 49Z" />
<glyph unicode="t" glyph-name="t" horiz-adv-x="718" d="M178 1223L424 1282V997H664V809H424V369Q424 275 453 230T553 184Q610 184 651 197L655 4Q592 -20 473 -20Q331 -20 256 61Q178 146 178 340V809H35V997H178V1223Z" />
<glyph unicode="u" glyph-name="u" horiz-adv-x="1165" d="M1028 997V299Q1028 164 1036 0H815L803 152H799Q758 83 678 30T479 -23Q422 -23 373 -10T278 36T201 118T150 242T131 412V997H383V455Q383 182 569 182Q639 182 689 222T762 317Q776 357 776 395V997H1028Z" />
<glyph unicode="v" glyph-name="v" horiz-adv-x="1040" d="M23 997H295L457 492Q497 365 524 242H530Q552 337 598 492L756 997H1022L641 0H393L23 997Z" />
<glyph unicode="w" glyph-name="w" horiz-adv-x="1533" d="M29 997H287L391 545Q431 360 455 221H459Q475 309 541 543L670 997H874L999 555Q1052 356 1079 221H1083Q1106 369 1149 555L1260 997H1507L1194 0H961L842 406Q796 561 766 725H762Q737 578 686 406L559
0H324L29 997Z" />
<glyph unicode="x" glyph-name="x" horiz-adv-x="1011" d="M23 997H303L422 809Q461 746 512 655H518Q557 731 604 813L715 997H989L655 518L995 0H711L588 199Q544 270 498 360H494Q463 299 403 199L289 0H10L356 508L23 997Z" />
<glyph unicode="y" glyph-name="y" horiz-adv-x="1024" d="M16 997H293L473 463Q501 382 528 268H535Q541 288 559 358T588 465L743 997H1014L764 317Q662 40 584 -103T416 -324Q294 -433 152 -453L94 -240Q171 -220 242 -170Q326 -114 379 -12Q395 17 395 33Q395
53 381 82L16 997Z" />
<glyph unicode="z" glyph-name="z" horiz-adv-x="921" d="M41 0V145L416 625L563 793V797H78V997H870V844L504 375Q411 261 356 205V201H883V0H41Z" />
<glyph unicode="{" glyph-name="braceleft" horiz-adv-x="616" d="M59 522V655Q110 656 144 669T193 705T214 750T219 801Q219 853 207 965Q193 1065 193 1130Q193 1270 274 1337T498 1405H557V1257H520Q443 1257 410 1217T377 1098Q377 1048 391 969Q403 834
403 821Q405 718 364 665T240 592V588Q322 568 363 514T403 356Q403 331 401 306T396 250T391 207Q377 128 377 78Q377 -84 520 -84H557V-229H498Q193 -229 193 51Q193 119 207 215Q219 325 219 377Q219 404 214 425T194 470T144 507T59 522Z" />
<glyph unicode="|" glyph-name="bar" horiz-adv-x="538" d="M178 1536H360V-512H178V1536Z" />
<glyph unicode="}" glyph-name="braceright" horiz-adv-x="616" d="M555 655V522Q395 520 395 377Q395 333 410 215Q424 87 424 51Q424 -229 119 -229H59V-84H96Q171 -83 204 -43T238 78Q238 110 225 207Q213 297 213 356Q212 460 253 514T375 588V592Q294 611
253 664T213 821Q213 879 225 969Q238 1066 238 1098Q238 1176 205 1216T96 1257H59V1405H119Q262 1405 343 1338T424 1130Q424 1098 410 965Q395 845 395 801Q395 772 400 750T421 705T471 669T555 655Z" />
<glyph unicode="~" glyph-name="asciitilde" horiz-adv-x="1220" d="M256 410H92Q89 584 163 672T360 760Q425 760 484 739T647 664Q731 620 779 601T870 582Q962 582 965 750H1128Q1132 655 1114 585T1058 474T975 416T872 397Q809 397 748 419T582 494Q568 501
538 517T496 539T461 555T425 570T394 578T362 582Q264 582 256 410Z" />
</font>
</defs>
</svg>
